Video e Audio > Diversos

Experiências com Download LEGAL de Filmes, Livros e Músicas

<< < (2/2)

zeurt:
Experimentei o Terra Video Store. Utilizei os R$10,00 oferecidos como "brinde" para alugar 2 filmes (R$4,90 cada): "Rei da Califórnia" e "Um Dia de Cão".
Estou com preguiça de fazer um review completo, talvez devido a minha decepção com alguns pontos que descreverei rapidamente abaixo.
Tudo é muito parecido com o Saraiva Digital, o qual eu analisei aqui: http://ryan.com.br/smf/index.php?topic=592.0
Agora tanto o Saraiva Digital como o Terra Video Store oferecem a opção de streaming (além do  download tradicional).

Pontos negativos:
- Os 2 filmes que aluguei só ofereceram a opção de legenda na modalidade Streaming. Na modalidade Download não havia a opção de legendas. Isso é um absurdo! Por exemplo, se você comprar um filme, é óbvio que você pretende fazer o download pra ficar com ele guardado (apesar da limitação de no máximo 3 licenças DRM). Nesse caso não há legendas. O mais absurdo é que alguns filmes oferecem apenas o audio original, e assim só pessoas com fluência em Inglês poderão assistir ao filme...
- Na modalidade Streaming percebe-se artefatos estranhos em cenas com mais movimentos. Isso ocorreu tanto no Netbook ASUS 1000H (cujo consumo do CPU ficou em quase 100%) como num Pentium 4 HT 2,8GHz com 2,5GB de RAM e Geforce 8400GS (cujo consumo ficou em 30 a 40%). Esses artefatos tornaram a experiência de assistir ao filme bastante decepcionate (outros usuários talvez achem isso insignificante e discreto).
- O Suporte da Terra é péssimo. Primeiro, é muito difícil achar algum canal de suporte (tive que ficar revirando o site pra conseguir algo que talvez seja o e-mail de suporte). Não responderam o meu e-mail solicitando informações sobre a legenda. Já ouvi relatos de outros usuários se queixando do suporte da Terra. Já a Saraiva, respondeu o meu e-mail quando, há quase 2 anos, testei o serviço logo no seu início.

Pontos Positivos:
- Na Modalidade Streaming, a exibição das legendas é bastante satisfatória: pode-se escolher o tamanho e a cor da fonte da legenda. A posição e a sincronização das mesmas estavam ótimas. O melhor de tudo é que não existe a barra preta de background, como eu descrevi na análise do Saraiva Digital, ao se assistir o filme com o WMP11.
- Fizeram acordo com a Warner. Agora têm acordo com duas das "seis grandes distribuidoras": Disney e Warner.

Segue o MediaInfo de um dos filmes que aluguei:


--- Código: ---General
Complete name                    : C:\Documents and Settings\XXXXX\Meus documentos\VideoStore\1687_Rei_da_California.wmv
Format                           : Windows Media
File size                        : 1.03 GiB
Duration                         : 1h 33mn
Overall bit rate mode            : Constant
Overall bit rate                 : 1 586 Kbps
Maximum Overall bit rate         : 1 789 Kbps
Encryption                       : http://www.microsoft.com/isapi/redir.dll?prd=wmdrm&pver=2&os=win&sbp=newclient
Encoded date                     : UTC 2010-11-24 01:01:14.394

Video
ID                               : 2
Format                           : VC-1
Format profile                   : AP@L1
Codec ID                         : WVC1
Codec ID/Hint                    : Microsoft
Duration                         : 1h 33mn
Bit rate mode                    : Constant
Bit rate                         : 1 644 Kbps
Width                            : 720 pixels
Height                           : 404 pixels
Display aspect ratio             : 16:9
Frame rate                       : 29.970 fps
Resolution                       : 8 bits
Colorimetry                      : 4:2:0
Scan type                        : Progressive
Bits/(Pixel*Frame)               : 0.189
Stream size                      : 1.07 GiB
Language                         : English (US)
Encryption                       : Encrypted

Audio
ID                               : 1
Format                           : WMA
Format profile                   : Pro
Codec ID                         : 162
Codec ID/Info                    : Windows Media Audio
Duration                         : 1h 33mn
Bit rate mode                    : Constant
Bit rate                         : 128 Kbps
Channel(s)                       : 2 channels
Sampling rate                    : 44.1 KHz
Resolution                       : 16 bits
Stream size                      : 85.4 MiB (8%)
Language                         : English (US)
Encryption                       : Encrypted


--- Fim de código ---

Navegação

[0] Índice de mensagens

[*] Página anterior

Responder

Ir para versão completa